#TITLE:Setsujou Danka;
#SUBTITLE:;
#ARTIST:Des-ROW Alpha;
#TITLETRANSLIT:;
#SUBTITLETRANSLIT:;
#ARTISTTRANSLIT:;
#CREDIT:;
#BANNER:setsujou danka-bn.png;
#BACKGROUND:setsujou danka-bg.png;
#LYRICSPATH:;
#CDTITLE:;
#MUSIC:setsujou danka.mp3;
#OFFSET:-0.287;
#SAMPLESTART:10.950;
#SAMPLELENGTH:15.000;
#SELECTABLE:YES;
#BPMS:0.000=180.000,198.000=105.000,264.750=180.000;
#STOPS:;
#BGCHANGES:;
// cache tags:
#FIRSTBEAT:0.000;
#LASTBEAT:332.000;
#SONGFILENAME:Songs/Music V.I.P ^_^/setsujou danka [CStar]/setsujou danka.sm;
#HASMUSIC:1;
#HASBANNER:1;
#MUSICLENGTH:130.646;
// end cache tags

//---------------dance-single - ----------------
#NOTES:
     dance-single:
     :
     Hard:
     11:
     1.000,1.000,0.574,0.115,1.000,934.000,75.000,15.000,0.000,0.000:  // measure 1
1000
0100
0010
0100
0010
0001
1000
0010
,  // measure 2
1000
0001
0010
0100
0010
1000
0010
0100
,  // measure 3
1000
0100
0010
0100
0001
0010
1000
0100
,  // measure 4
0001
0100
0010
0001
0010
0100
0010
0100
,  // measure 5
1100
0010
0100
0010
0001
1000
0100
0010
,  // measure 6
0100
1000
0101
0010
0101
0010
1001
0010
,  // measure 7
0101
1000
0101
0011
0101
1001
0011
1001
,  // measure 8
0101
1100
0110
0101
0110
0011
0001
0001
,  // measure 9
1000
0000
0100
0000
0001
0100
0001
0000
1000
0010
1000
0100
1000
0001
1000
0000
,  // measure 10
0010
0000
0100
0000
0010
0001
0010
0000
0100
1000
0100
0010
0100
0001
0100
0000
,  // measure 11
0010
0000
1000
0000
0100
0001
0100
0000
0010
0001
0010
1000
0010
0100
0010
0000
,  // measure 12
0001
0000
0010
0000
0001
0010
0001
0000
0001
0100
0001
1000
0001
0010
0001
0000
,  // measure 13
0010
0000
0100
0000
0010
0100
1000
0000
0010
0001
0010
0100
1000
0100
0010
0000
,  // measure 14
1000
0000
0100
0000
0010
0001
0010
0000
0010
1000
0100
0010
0001
0100
0010
0000
,  // measure 15
1000
0010
0100
0010
0002
0000
2003
0000
,  // measure 16
3010
0100
1000
0100
0010
0001
0010
0001
0010
0100
0010
0100
1000
0001
1000
0001
,  // measure 17
1001
0000
1000
0100
0010
0000
0010
0100
0001
0000
0001
0010
0100
0000
0100
1000
,  // measure 18
0010
0000
0010
0001
0100
0000
0100
1000
0001
0000
0001
0010
0100
0000
0100
0001
,  // measure 19
0010
0000
0010
0100
1000
0000
1000
0100
0001
0000
0001
0100
0010
0000
0010
0100
,  // measure 20
1000
0000
1000
0100
0010
0000
0010
0100
0000
0100
0000
0002
0000
0000
0003
0000
,  // measure 21
1000
0000
0100
0010
0001
0000
0010
0000
0001
0000
0010
0100
1000
0000
0010
0000
,  // measure 22
0001
0000
1000
0100
0010
0000
0001
0000
1000
0000
0000
2000
0000
0000
3000
0000
,  // measure 23
0100
0000
0000
0010
0000
0001
1000
0010
0000
0001
0000
0010
0000
0100
0000
1000
,  // measure 24
0100
0010
0001
0000
1000
0000
0100
0000
0010
0000
0020
0000
0000
0030
0000
0000
,  // measure 25
1000
0000
1000
0000
1000
0100
1000
0000
,  // measure 26
1000
0000
1000
0000
1000
0100
1000
0100
,  // measure 27
1000
0000
0000
0000
1000
0000
0000
0000
1000
0010
1000
0000
1000
0010
1000
0010
,  // measure 28
1000
0010
0100
0010
0001
0000
0100
0001
0100
0001
0100
0010
0100
1000
0100
0000
,  // measure 29
0010
0000
0010
0000
0010
0001
0010
0000
,  // measure 30
0010
0000
0010
0000
0010
0001
0010
0001
,  // measure 31
0010
0000
0000
0000
0010
0000
0000
0000
0010
0000
0001
0000
0010
0000
0001
0100
,  // measure 32
0010
0100
0010
0100
0010
0100
0010
0000
0001
1000
0001
1000
0001
1000
0001
1000
,  // measure 33
0100
0010
0001
0010
0100
1000
0001
1000
0100
0010
0001
1000
0001
0010
0100
1000
,  // measure 34
0100
0010
0001
0100
0001
0010
0100
1000
0010
1000
0100
0011
0000
0000
0000
0100
,  // measure 35
1000
0010
0100
1000
0001
0010
0100
1000
0001
0100
0010
1000
0001
0010
0100
1000
,  // measure 36
0001
0100
0010
1000
0001
0010
0100
1000
0001
0100
0010
1001
0000
0000
0000
0010
,  // measure 37
0100
0010
0001
1000
0001
0100
1000
0100
0010
1000
0010
0001
0100
0001
0010
0100
,  // measure 38
0010
1000
0100
1000
0010
0001
0010
0100
1000
0100
0010
0000
1000
0001
1000
0010
,  // measure 39
0100
0010
1000
0100
1000
0001
0010
0001
0100
0010
0100
1000
0010
1000
0100
0010
,  // measure 40
0100
0001
0010
0001
0100
1000
0100
0010
1000
0010
1100
0000
0000
0000
0000
0010
,  // measure 41
0100
0010
1000
0010
0100
0001
0010
0100
1000
0010
0100
0001
0010
0100
1000
0010
,  // measure 42
0100
0001
0010
0100
1000
0010
0100
0001
0010
0100
1000
0010
0100
0001
0010
0100
,  // measure 43
1000
0100
0010
0001
0100
0010
1000
0100
0010
0001
0100
0010
1000
0100
0010
0001
,  // measure 44
0100
0010
1000
0100
0010
0001
0100
0010
1000
0100
0010
1001
0000
0000
0000
0000
,  // measure 45
1000
0100
0000
0010
0100
0010
1000
0100
0010
0001
0010
1000
0010
0100
1000
0100
,  // measure 46
0010
0001
0100
0001
0100
1000
0100
0010
0001
0100
0010
0101
0000
0000
0000
0000
,  // measure 47
1000
0100
0010
0001
0010
0100
1000
0100
0010
0001
0010
1000
0100
0001
0010
1000
,  // measure 48
0100
0001
0100
1000
0010
0001
0100
1000
0001
0010
1000
0110
0000
0000
0000
2002
,  // measure 49
0000
0000
3003
0000
,  // measure 50
1000
0001
1000
0001
1000
0001
0010
0000
,  // measure 51
0010
0000
0000
0000
0000
0000
0000
0000
0000
0000
0000
0000
0010
0000
0000
0000
0000
0000
0000
0000
0000
1000
0000
0000
0000
0000
0000
0010
0000
0000
0000
0000
0000
0000
0000
0000
0010
0000
0000
0000
0000
0000
0000
0000
0000
0000
1000
0000
,  // measure 52
0100
0000
0000
0000
0000
0000
0000
0000
0000
0000
0000
0000
0010
0000
0000
0100
0000
0000
1000
0000
0000
0100
0000
0000
0010
0000
0100
0000
0010
0000
0100
0000
0010
0000
0100
0000
1000
0000
0000
0000
0000
0000
0100
0000
0000
0001
0000
0000
,  // measure 53
0010
0000
0000
0000
0000
0000
1000
0000
0000
0100
0000
0000
0001
0000
0000
0100
0000
0000
1000
0000
0000
0100
0000
0000
0001
0000
0000
0010
0000
0000
1000
0000
0000
0010
0000
0000
0001
0000
0000
0000
0000
0000
1000
0000
0100
0000
1000
0000
,  // measure 54
0100
0000
0000
0010
0000
0000
0001
0000
1000
0002
0000
0000
0013
0000
0000
1000
0000
0000
0110
0000
0000
0000
0000
0000
,  // measure 55
0000
0000
0000
0000
0000
0000
1010
0000
0000
0000
1010
0000
0010
0000
1000
0100
,  // measure 56
1000
0000
0000
0100
0000
0000
0010
0000
0000
0001
0000
0000
0010
0000
0100
0000
0010
0000
0001
0000
1000
0000
0100
0000
0010
0000
0000
0001
0000
0000
0010
0000
0000
1000
0000
0000
0100
0000
0000
0010
0000
0000
0001
0000
0000
0010
0000
0000
,  // measure 57
1000
0000
0000
0100
0000
0000
1000
0000
0000
0001
0000
0000
1000
0000
0010
0000
1000
0000
0100
0000
0000
0000
0000
0000
0000
0000
0000
0000
0000
0000
1000
0000
0000
0100
0000
0000
0010
0000
0000
0100
0000
0000
1000
0000
0000
0100
0000
0000
,  // measure 58
0010
1000
0001
0010
1100
0010
1001
0100
0011
0000
1000
0000
1002
0000
0000
0000
,  // measure 59
1003
0100
0010
0000
0000
0001
1010
0001
1000
0001
0010
0100
0001
0000
0001
0100
,  // measure 60
0011
1000
0010
0100
0011
0100
1010
0010
1001
0000
1100
0000
0010
0000
0000
0000
,  // measure 61
1001
0100
1010
0100
1001
0010
0101
1000
0110
1000
1010
0000
0110
1000
0110
1000
,  // measure 62
0011
1000
0110
1000
0011
1000
0101
1000
1001
0000
1010
0000
1002
0000
0000
0000
,  // measure 63
1003
0000
0100
0000
0010
0000
0101
0000
1000
0010
0001
0000
2100
0000
0010
0000
,  // measure 64
3010
0000
0100
1000
1010
0000
0011
0000
0101
0000
1000
0000
0102
0000
0010
0000
,  // measure 65
0103
0010
0001
0100
0010
1010
0102
1000
,  // measure 66
1000
0000
0000
0000
0000
0000
0100
0000
0000
0000
0000
0000
0010
0000
0000
0000
0000
0000
0010
0000
0000
0003
0000
0000
0100
0000
0000
0000
0000
0000
0100
0000
0000
0000
0000
0000
1000
0000
0000
0000
0001
0000
0000
0000
1000
0000
0000
0000
,  // measure 67
0000
0001
0000
0000
0010
0000
0000
0000
1000
0000
0000
0000
0000
0000
0000
0000
1000
0000
0100
0000
0010
0000
0001
0000
0010
0000
0100
0000
0001
0000
0010
0000
,  // measure 68
0100
1000
0100
0010
1000
0100
0010
0100
0010
0001
1000
0100
0010
0100
1000
0100
,  // measure 69
0010
1000
0010
1001
0000
0000
0000
1000
0100
0000
0010
0100
0010
0100
1000
0100
,  // measure 70
0010
1000
0100
0001
0010
0100
0010
1000
0100
0010
0100
0001
0100
0010
1000
0100
,  // measure 71
0010
1000
0110
0000
0000
0000
0000
1000
0100
0000
1000
0100
0010
0001
0100
0010
,  // measure 72
1000
0001
0100
0010
1000
0001
0010
0100
0010
0100
1000
0100
0010
1000
0001
0010
,  // measure 73
0100
1000
0110
0001
0010
0100
1000
0100
0010
0100
1000
0001
0010
0100
0010
1000
,  // measure 74
0100
0010
0001
1000
0100
0010
1000
0100
1000
0001
0100
1000
0100
0010
0100
0001
,  // measure 75
0010
0001
0010
0101
0000
0000
0000
0000
1010
0000
0000
0010
1000
0000
0010
0000
,  // measure 76
1001
0000
0000
0001
1000
0000
0010
0000
1100
0000
0000
0100
1000
0000
0010
0000
,  // measure 77
1010
0000
0000
0010
1000
0000
0010
0000
1100
0010
0100
0010
0001
0010
0100
1000
,  // measure 78
0100
0010
0100
1000
0010
0100
0001
1000
0100
0010
0001
1000
0010
0100
0001
0010
,  // measure 79
0100
1000
0001
0100
0010
1000
0001
1000
0110
1000
0010
0000
1000
0010
0000
0000
,  // measure 80
1100
0000
0000
0010
1000
0000
0100
0000
1100
0000
0000
0010
1000
0000
0100
0000
,  // measure 81
1100
0000
0000
0010
1000
0000
0001
0000
1000
0100
0010
1000
0100
0010
1000
0100
,  // measure 82
0010
0001
0010
0100
0001
0010
0100
0001
0010
0100
1000
0100
0010
0001
0010
0100
,  // measure 83
1000
0100
0010
0001
0010
1000
0100
0001
2002
0000
0000
0000
0000
0000
0000
0000
,  // measure 84
3003
0000
0000
0000
;
